#TITLE:KnightRider Of Doom;
#SUBTITLE:2002 Power of The DragonFlame;
#ARTIST:Rhapsody;
#TITLETRANSLIT:;
#SUBTITLETRANSLIT:;
#ARTISTTRANSLIT:;
#CREDIT:;
#BANNER:BN.Png;
#BACKGROUND:BG.Png;
#LYRICSPATH:;
#CDTITLE:;
#MUSIC:02 - knightrider of doom.mp3;
#OFFSET:0.000;
#SAMPLESTART:100.000;
#SAMPLELENGTH:12.000;
#SELECTABLE:YES;
#BPMS:0.000=300.000,118.000=220.001,142.500=180.000;
#STOPS:;
#BGCHANGES:;
// cache tags:
#FIRSTBEAT:0.500;
#LASTBEAT:756.250;
#SONGFILENAME:Songs/Music V.I.P ^_^/02 - knightrider of doom/02 - knightrider of doom.sm;
#HASMUSIC:1;
#HASBANNER:1;
#MUSICLENGTH:236.860;
// end cache tags

//---------------dance-single - Can you Beat it?----------------
#NOTES:
     dance-single:
     Can you Beat it?:
     Challenge:
     15:
     1.000,1.000,1.000,0.173,1.000,1645.000,358.000,41.000,0.000,0.000:
0000
1002
0000
0000
0000
0000
0003
1100
,
0110
0000
0101
0011
0000
0000
1010
0000
,
0011
0000
0101
0000
0000
1100
0000
0011
,
0000
0000
0110
0000
0000
1001
0101
0000
,
0011
0000
0110
1001
0000
0101
0000
0000
,
0000
0011
0101
0000
1001
0000
0101
0000
,
0000
0011
1100
0000
0011
0000
0000
0110
,
0000
0101
1010
0000
0101
0011
0000
0101
,
0000
1010
0101
0011
,
0000
1001
0110
0000
0000
0011
0000
0000
,
0000
0101
0110
1001
0000
0110
0000
1010
,
0101
0000
0110
1001
,
0011
0000
0110
0000
1001
0000
0000
2002
,
0000
0000
0000
3003
0000
0000
1001
0000
,
0000
0010
1100
0010
0100
1010
0001
0010
,
1001
0010
0010
1001
0010
0100
0011
0100
,
1000
0011
0100
0010
1001
0010
0001
0010
,
1100
0010
0010
1001
0010
0001
0010
0100
,
0010
0101
0100
0000
0101
1000
0010
0100
,
1010
0100
0010
1001
0010
0001
1010
0100
,
0010
1100
0010
0001
0010
0101
0010
0010
,
0001
1010
0100
0001
0110
0010
1100
0001
,
0010
1001
0010
0100
0010
1010
0000
0001
,
1001
0010
0100
0011
0100
0000
1100
0001
,
1000
1100
0010
0001
1000
0110
0010
0001
,
1010
0001
0000
1001
0010
0100
1000
0011
,
0100
0000
0010
1002
0000
0000
0000
0000
,
0000
0000
0003
1020
0000
0000
0000
0030
,
0000
0000
0000
0011
,
0000
0000
0000
0000
0000
0000
0000
0000
1001
0000
0000
0000
0000
0000
0000
0100
,
0000
0000
1001
0000
0000
0010
0000
0100
0000
0000
0010
0000
1001
0000
0010
0000
,
0001
0000
0000
1000
0110
0001
0000
0000
0100
0000
0001
0000
0000
0010
0100
0001
,
0000
1000
0000
0000
0001
0000
1000
0000
0011
0000
0100
0000
0000
0001
0000
0000
,
0110
0000
0001
0000
0010
0000
0100
0000
0000
0010
1000
0000
0001
0000
0010
0100
,
0000
2000
0000
0000
0000
0000
0000
0000
3000
0000
0000
0100
0000
0001
1000
0000
,
0000
0100
1001
0000
0000
0000
0000
0010
0000
0000
0000
1000
0000
0000
0000
0100
,
0001
1000
0100
1000
0101
0010
0100
0010
1001
0010
0001
0010
1100
0000
0100
0010
,
1001
0010
0001
0010
1100
0000
0010
0010
1001
0010
0001
0010
0101
1000
0100
1000
,
0101
0010
0001
1000
0100
0010
1000
0001
0000
0010
1000
0001
0000
0100
1010
0001
,
0010
0100
1010
0100
0010
0001
1010
0001
0010
0100
1010
0000
0100
0010
1001
0010
,
0001
0010
1001
0000
0010
0100
0011
0100
0010
0100
1001
0100
0000
0010
1000
0100
,
1010
0001
0010
0001
1010
0100
0010
0100
1000
0001
0010
0100
1100
0010
0001
0010
,
1100
0000
0001
0000
1100
0010
0001
1000
0100
0010
0001
0010
1100
0000
0001
0000
,
1010
0000
0010
0000
0110
0001
0010
0001
1010
0100
0010
0100
0010
0001
1100
0001
,
0100
0010
0000
0010
1000
0010
0001
0010
0000
0001
0011
0100
0000
0001
0001
1000
,
0001
1000
0000
0010
0101
0010
0100
0010
1001
0000
0010
1000
0011
0000
0010
0000
,
1100
0001
0100
0001
1100
0001
1010
0001
0010
0100
1100
0000
0010
0001
1010
0001
,
0010
0100
1010
0100
0010
0001
1010
0001
0010
0100
0011
0100
0000
0100
1001
0010
,
0000
0010
0100
0001
0000
0001
1000
0010
0100
0010
0100
0001
1000
0000
0101
0000
,
0001
0000
0010
1000
0000
0100
0010
0100
0000
0100
1000
0001
0001
0010
1000
0010
,
0100
0010
1000
0001
0000
0001
1000
0010
0000
0100
0001
1000
0000
1000
0000
0100
,
0000
0001
0000
1000
0000
0001
0000
0000
0010
0100
0000
0000
0000
0001
0000
0000
,
0000
1000
0000
0000
0000
0001
0000
0000
0000
0100
0000
0000
0000
0001
0000
0000
,
0010
0000
0000
0000
0000
1000
0000
0000
1100
0000
0000
0001
0100
0000
0011
0000
,
0100
0000
0001
0000
1010
0100
0000
0000
1001
0000
0100
0000
0010
0100
1000
0010
,
0000
0001
0000
0010
1000
0100
0000
0010
0100
0001
0000
1000
0000
0100
0000
0010
,
0000
0001
0000
0010
0000
0100
0000
0000
1010
0000
0001
0010
0000
0001
0000
0010
,
0000
0100
0000
0010
0000
0001
0000
1000
0000
0000
0000
0100
0000
0000
0000
0010
,
0000
0000
0000
0001
0000
1000
0100
0000
0010
0000
0001
0000
0000
0000
0010
0000
,
0000
0000
0100
0000
0010
0000
0001
0000
0000
1000
0000
0000
0000
0100
0000
0000
,
0000
0000
0010
0000
1001
0010
0000
0000
0000
0100
0000
0000
1000
0000
0000
0000
,
0000
0001
0100
0000
0000
0001
0000
0000
0010
0000
0000
0000
0100
0000
0000
0000
,
0000
1000
0002
0000
0000
0000
0000
0000
0000
0000
0000
0000
0000
0003
0000
0000
,
0100
1000
0000
0000
1001
0000
0000
0000
0010
0000
0000
0000
0100
0000
0000
0000
,
0010
0000
0001
0000
1000
0000
0000
0000
0011
0000
0000
0100
0000
0000
0000
0001
,
0000
1000
0000
0002
0000
0000
0000
0003
0000
0000
0000
0100
0000
0000
1000
0000
,
0000
0000
0201
0000
0000
0000
0000
0000
0000
0000
0000
0000
0300
0010
0000
0000
,
0001
0000
0001
0100
0000
0100
1001
0010
0000
0100
0011
0010
1000
0001
0010
0001
,
1010
0100
0010
0010
1001
0000
0001
0010
0100
0000
0011
0000
1000
0000
0101
0000
,
1010
0000
0010
0000
1010
0001
0010
0001
1001
0000
0100
0001
1100
0010
0100
0010
,
0101
0010
1000
0010
0011
1000
0000
0100
0101
0010
0100
0010
1100
0010
0001
0010
,
1000
0010
0010
0001
1010
0100
0010
0001
1010
0000
0010
0001
1010
0000
0010
0001
,
1000
0100
0010
0001
1001
0000
0010
0001
1100
0001
0001
1000
0010
1000
0010
0100
,
0001
1000
0010
0100
0011
1000
0011
1000
0010
1000
0101
1000
0000
0000
0011
1000
,
0100
0000
0001
0010
0000
0100
0001
0010
0100
0000
1000
0100
0010
0000
0001
0000
,
0000
0010
0000
1002
0000
0100
0000
0010
,
0000
0000
0000
0000
0000
0000
0000
0000
0000
0000
0003
0100
0000
0010
0101
1000
,
0010
0000
1001
0100
0010
0001
1010
0100
0010
0001
1010
0100
1000
0001
0000
0010
,
0110
0001
1000
0001
0010
1000
0001
0100
0010
0001
0000
0100
0011
1000
0100
0010
,
0101
1000
0010
0000
1001
0100
0000
0010
1001
0010
0100
0010
1001
0010
0100
0000
,
1001
0000
0010
0100
1000
0010
0000
0001
1000
0010
0001
0000
1100
0001
0100
0010
,
1100
0010
0100
0001
1100
0010
0100
0001
0100
0001
1000
0010
1000
0100
0001
1000
,
0100
0010
0000
0001
0110
0000
0000
1000
0001
0000
0001
0100
0000
1000
0000
0100
,
1010
0000
0001
0010
0000
0001
1000
0010
0100
0000
1001
0010
0100
0000
1010
0000
,
0001
0100
0001
0100
0001
0000
2010
0000
0000
0000
0000
0000
3000
0000
0000
0000
,
0000
0000
0000
0020
0000
0000
0000
0000
0000
0030
1002
0000
0000
0000
0000
0000
,
0000
0003
0101
1000
0001
1000
0101
0000
0010
0010
1100
0000
0011
0000
0100
0001
,
0100
0010
0101
0010
0101
0010
1000
0010
1001
0010
1000
0100
1001
0100
0000
0010
,
1000
0010
0000
0001
1000
0010
0001
0010
1100
0000
0100
0010
1001
0010
0001
0010
,
1000
0010
0000
0010
1000
0010
0001
0100
1001
0001
0000
0100
0011
0100
0010
1000
,
0011
1000
0010
1000
0101
0100
0000
0010
1000
0010
0000
0010
0101
0000
0001
0010
,
1000
0010
0110
0001
0010
0001
0010
0100
0010
0100
0010
0001
1000
0001
1010
0001
,
1000
0100
1000
0100
0000
0100
1010
0001
0010
0001
1010
0100
0010
0100
1010
0001
,
0010
0000
1001
0010
0100
0010
1100
0010
0000
0010
1001
0010
0001
0010
0101
0000
,
1000
0100
0001
0100
0010
0000
1001
0010
0001
0010
1010
0100
0010
0100
0001
0100
,
1001
0100
0010
0100
0011
0100
0010
1000
0001
0010
0010
1000
0001
0100
0000
0100
,
1010
0010
0100
0000
1010
0001
0001
0010
1100
0000
0010
0100
1010
0001
0010
0001
,
1000
0010
0100
0000
1100
0010
0100
0010
1000
0001
0010
0010
1001
0100
0010
0100
,
1010
0000
0000
0001
1010
0000
0001
0000
0110
0100
1000
0000
0001
0010
1001
0000
,
1100
0010
0100
0010
1000
0001
0000
0001
1000
0100
0000
0100
1000
0100
0000
0010
,
1000
0010
1100
0010
0100
0000
0001
0010
1001
0000
0011
0000
0001
0100
1001
0100
,
0001
0100
0011
0100
0001
0100
0001
0000
0000
0000
1010
0000
0000
0000
0100
0000
,
0000
0000
0001
0000
0000
0000
0000
0010
0000
0000
0000
0001
0000
0000
0000
0100
,
1000
0000
0100
0000
0000
0000
1001
0000
0000
0000
1000
0000
0100
1000
0000
0100
,
1000
0010
0000
0001
0010
0000
1100
0000
0010
0000
1001
0000
0010
0001
1000
0100
,
0000
0001
0000
1000
0100
0002
0000
0000
1000
0000
0000
0000
0100
0000
0000
0000
,
0010
0000
0000
0000
1000
0000
0003
0200
0010
0000
0000
0000
1000
0000
0000
0000
,
0010
0000
0000
0000
0000
0000
0000
0300
0021
0000
0000
0000
0000
0030
0000
0000
,
1100
0000
0002
1000
0000
0100
0000
0010
,
0000
0000
1000
0000
0100
0000
0000
0000
0010
0000
0010
0000
0000
0000
0100
0003
,
0000
0000
1000
0010
1000
0001
0100
0020
0000
0000
0100
0030
0000
0000
0000
1000
,
0000
0000
1001
0000
0000
0100
1000
0010
0000
0000
0001
0000
0000
0000
0010
0000
,
0000
0000
0100
0000
1000
0000
0010
0001
0000
0000
1000
0000
0000
0100
0000
0000
,
0000
0010
0000
0000
1001
0000
0000
0000
0010
0000
0000
0000
0100
0000
0000
0001
,
0000
1000
0011
0000
0100
0000
0001
0000
,
1000
0001
0110
0000
0001
0000
1000
0000
,
0001
0100
0000
0000
,
0001
0000
1000
0000
0001
1000
0100
1000
0101
0010
0100
0010
0101
0010
1000
0010
,
0001
0000
1001
0010
0100
0010
1100
0010
0001
0010
1001
0010
0100
0010
1100
0000
,
0001
0010
1001
0010
0100
0010
0101
1000
0100
1000
0101
0010
0100
0010
1100
0010
,
0001
0010
1001
0010
0100
0010
1100
0000
0010
0001
1001
0010
0100
0000
1010
0000
,
0010
0000
1001
0000
0001
0000
1010
0000
0010
0100
1010
0100
0010
0001
1010
0001
,
0000
0010
1000
0010
0000
0010
1001
0010
0001
0010
1100
0010
1100
0000
0010
0000
,
1001
0000
0001
0000
1010
0100
0010
0100
1010
0000
0010
0001
1010
0001
0001
0000
,
1010
0100
0010
0100
0011
0100
0010
0100
0011
0000
0100
0000
1010
0000
0001
0000
,
1010
0000
0000
0000
0101
0000
0000
0000
1010
0000
0000
0001
0100
0000
0000
0100
,
1010
0000
0000
0000
0000
0000
0000
0000
0000
0000
0000
0000
0000
0000
0000
0100
,
0010
0000
0000
0001
0000
0000
0000
1000
0001
0000
0100
0000
0012
0000
0000
0000
,
0000
0000
1000
0000
0003
0001
0000
0000
1000
0100
0001
0010
0000
0100
0000
0010
,
0000
0001
1000
0010
0000
0100
0000
0010
0001
0000
1010
0000
0200
0000
0000
0000
,
0000
0300
1002
0000
0000
0000
0000
0000
0003
0000
1100
0000
0000
0000
0010
0000
,
1001
0000
0010
0000
0100
0000
0010
0000
1001
0000
0010
0100
0000
0000
0010
0000
,
1001
0000
0010
0100
0000
1000
0000
0000
0010
0001
0000
0000
0000
0100
0001
0000
,
0110
0000
0000
0001
1000
0000
0000
0001
1100
0000
0000
0000
0000
0010
2000
0000
,
0001
0000
3000
0000
1010
0000
0001
0010
,
1100
0000
0010
0000
0001
0000
1010
0000
0100
0000
0010
0002
0000
0000
1000
0003
,
0010
0001
0000
0200
0000
0000
0000
0300
0000
1000
0000
0002
0000
0000
0000
0000
,
0003
0000
0000
0002
0000
0000
0000
0003
1000
0100
0000
0010
0000
0000
0000
0001
,
0000
0010
0000
0200
0000
0000
0000
0300
0000
0001
0000
0010
0000
0000
0000
0100
,
0000
0000
1001
0000
0000
0000
0001
0000
0100
0000
0011
0000
0000
1000
0000
0100
,
0000
0020
0000
0000
0000
0030
0001
0000
1010
0200
0000
0000
0000
0300
0000
0000
,
0000
0000
0001
0000
0000
0000
0100
0000
0001
1000
0000
0000
0000
0001
0000
0010
,
0000
0001
0000
0000
0000
0020
0000
0000
0000
0000
0000
0000
0000
0000
0000
0000
,
0000
0000
0000
0000
0000
0000
0031
0000
1000
0000
0100
0000
1000
0001
0000
1000
,
0010
0100
0000
1000
0000
0001
0100
0000
0100
0000
0010
0001
1010
0100
0000
0001
,
0010
0010
0000
0010
1001
0010
0100
0001
0000
0001
1000
0001
0010
0001
1000
0100
,
0000
0000
0010
0000
0100
0000
0010
0002
0000
0000
0000
0000
0000
0000
0000
0000
,
0000
0000
0000
0000
0003
0100
1000
0100
1000
0100
1000
0001
0010
0100
0010
0100
,
0010
0001
1010
0001
0010
0010
0100
0010
0001
1000
0001
0010
0100
0002
1000
0000
,
0000
0000
0100
0000
0003
0000
1100
0010
0100
0010
0000
0010
0001
0001
0010
0000
,
1001
0000
0001
0000
0010
0100
0010
0100
0000
0001
1010
0001
1000
0100
1000
1000
,
0001
0010
1000
0000
0010
0000
0001
0100
1000
0001
0100
0001
0000
0000
1000
0001
,
0000
0100
0000
0010
0000
0001
0000
0010
0000
0100
0000
0010
0000
0001
0000
0010
,
1100
0000
0010
0000
0001
0010
0000
0000
0001
0000
0100
0000
0000
0001
0000
0100
,
0000
0001
0000
0000
1010
0100
0000
1000
0000
0100
0000
1000
0000
0100
0000
0010
,
0000
0100
0000
0010
0000
0001
0000
0010
1200
0000
0000
0000
0300
0000
0000
0002
,
0000
0000
0000
0000
0003
0000
0000
0100
0000
0000
0002
0000
0000
0000
0000
0000
,
0003
0010
0000
0200
0000
0300
1001
0100
,
0100
1000
0100
0000
1100
0010
0100
0010
0100
0010
0001
0001
1000
0010
0100
0010
,
0000
0000
0001
0000
1001
0000
0010
0000
0010
0100
0000
0010
1001
0000
0010
0000
,
0010
0001
0001
0010
1000
0010
0100
0010
0100
0010
0000
0100
1001
0100
0000
0000
,
0000
1000
0000
0100
0001
1000
0100
0000
1001
0000
0000
0100
1001
0000
0100
0000
,
2001
0000
0000
0000
0001
3000
0000
0000
1001
0000
0000
0000
0101
0000
1000
0000
,
0101
0000
0000
0020
0001
0000
1000
0030
0000
0000
0000
0100
0010
0002
1000
0000
,
0010
0000
0010
0000
0000
0000
0010
0000
0000
0003
0010
0001
1000
0000
0101
0000
,
1000
0000
1100
0000
0010
0000
1001
0000
0010
0000
1100
0000
0010
0000
1001
0010
,
1000
0010
0000
0000
0001
0100
0000
0000
0101
0000
0000
0000
1010
0000
0000
0000
,
0010
0100
0000
0000
0001
0000
1000
0000
0000
0010
1000
0100
1000
0010
0000
0100
,
1000
0010
0000
0001
1000
0010
0000
0100
1000
0010
0000
0001
0100
1000
0000
0000
,
0010
0100
0000
0000
0110
0000
0000
0000
1010
0000
0000
0000
0110
0000
0000
0000
,
0001
0000
0000
0001
0000
0001
0000
0000
0011
0000
0000
1000
0011
0000
1000
0100
,
1001
0100
0010
0100
1010
0100
1010
0001
0010
0001
1000
0100
0010
0100
1010
0000
,
0001
0010
1001
0000
0010
0000
1010
0100
0010
0100
1010
0100
0010
0000
1000
0010
,
0100
0001
1000
0001
0000
0001
0100
0010
0001
0001
1000
0100
0000
0001
1010
0000
,
0001
0000
1100
0000
0001
0010
0100
0000
0010
0000
0011
0000
1000
0000
0100
0010
,
0001
1000
0110
0000
0001
0010
1100
0010
0001
0010
1100
0010
0100
0010
1100
0000
,
0010
0000
1010
0000
0001
0000
1001
0000
0100
0010
0101
0000
0101
0000
0100
0000
,
0101
0010
0100
0010
1100
0010
0001
0000
0110
0001
0010
0100
1010
0100
0010
0100
,
1010
0100
0000
0000
0101
0000
1000
0000
0012
0000
0000
0000
0010
0000
0000
0003
,
0110
0000
0000
1000
0100
0000
0000
0010
1001
0000
0000
0000
0010
0000
0000
0001
,
0000
0000
0000
0100
0000
0000
0000
0000
0011
1000
0000
0000
0011
0000
1000
0100
,
0010
0000
1000
0100
0001
1000
0000
0000
1100
0010
1000
0000
0001
0010
1000
0001
,
0000
0010
1000
0100
0000
0010
1000
0001
0000
0010
1000
0100
0000
0010
0000
0001
,
0100
0010
0001
0000
1010
0000
0100
0000
1010
0000
1001
0000
0010
0000
1100
0000
,
0000
0010
1001
0000
0010
0100
1010
0000
0001
0000
1010
0100
0010
0001
0011
0100
,
0010
0100
1001
0100
0010
0001
1000
0100
0010
0001
1000
0100
1010
0001
0010
0100
,
1000
0001
0010
0100
1000
0010
0001
0010
1100
0010
0001
0010
1000
0010
0100
0010
,
1100
0000
0010
0100
0000
0001
0100
1000
0010
0000
0001
0100
0010
0000
0001
0020
,
0000
0000
0000
0000
0000
0000
0000
0000
0030
0000
1001
0000
1000
0000
0100
0010
,
0000
0001
0000
0000
0000
0000
0000
0000
0000
0000
0000
0000
0000
0000
0000
0000
;
